#TITLE:Van Cho Anh;
#SUBTITLE:;
#ARTIST:Bao Thy ft. Vuong Khang;
#TITLETRANSLIT:Van Cho Anh;
#SUBTITLETRANSLIT:;
#ARTISTTRANSLIT:Bao Thy ft. Vuong Khang;
#CREDIT:;
#BANNER:;
#BACKGROUND:;
#LYRICSPATH:;
#CDTITLE:;
#MUSIC:Van cho anh - Bao Thy.mp3;
#OFFSET:0.340;
#SAMPLESTART:100.000;
#SAMPLELENGTH:11.980;
#SELECTABLE:YES;
#BPMS:0.000=103.000;
#STOPS:;
#BGCHANGES:;
// cache tags:
#FIRSTBEAT:1.000;
#LASTBEAT:204.000;
#SONGFILENAME:Songs/Music V.I.P ^_^/Van Cho Anh/Van cho anh - Bao Thy.sm;
#HASMUSIC:1;
#HASBANNER:0;
#MUSICLENGTH:119.674;
// end cache tags

//---------------dance-single - Blank----------------
#NOTES:
     dance-single:
     Blank:
     Hard:
     8:
     0.763,0.874,1.000,0.418,0.213,428.000,157.000,50.000,0.000,39.000:
0000
0000
0000
0000
1000
0000
0100
0000
0010
0000
0001
0000
0010
0000
0010
0001
,
0010
0010
0100
1000
1000
0100
0010
0001
,
0001
0000
0010
0000
0001
0000
0010
0000
0100
0000
0010
0000
1000
0000
0100
1000
,
0100
1000
0100
0010
0100
1000
1000
0010
,
0101
0101
1010
0100
0001
1000
1100
1100
,
0010
0001
0110
0010
1000
0100
1100
1100
,
0100
0010
0101
0010
0001
0100
0110
0110
,
0011
0010
0101
0010
0100
0100
0110
0110
,
1010
0000
0010
0000
0101
0000
0010
0000
1000
0000
0100
1000
1100
0000
1100
0000
,
0100
0000
0010
0000
0101
0000
0010
0000
0100
0000
0010
0100
0110
0000
0110
0000
,
0110
0000
0010
0000
1001
0000
0001
0000
1000
0000
0010
0001
0011
0000
0011
0000
,
0010
0000
0001
0000
1001
0000
0010
0000
1000
0000
0100
1000
1100
0000
1100
0000
,
0100
0000
0010
0000
1002
0000
0010
0100
1023
0000
0100
1000
0132
0000
0010
0100
,
2013
0001
0110
0000
3201
0000
1000
0010
0001
0000
0301
0010
1102
0000
0110
0000
,
2013
0000
0010
3000
1020
0000
1000
0100
2001
0000
3131
0010
1100
0000
1010
0000
,
0011
0100
1000
0000
2001
0000
0001
0100
3012
0000
1000
0100
1013
0000
1100
0000
,
0201
0010
0001
0300
2001
0000
0001
3000
1000
0000
1000
0000
1100
0000
1100
0000
,
0100
0000
0010
0000
0201
0000
0010
0300
0100
0000
0100
0000
0101
0000
0101
0000
,
0001
0000
0001
0000
1020
0000
0100
0030
1010
0000
0010
0000
0110
0000
0110
0000
,
0001
0010
1100
0010
1001
0010
1010
1010
,
0001
0000
0001
0000
2100
0000
0001
0010
0102
0000
3010
0000
2000
0003
0100
3010
,
1100
0010
0001
0010
0102
0000
0010
0003
1002
0000
0100
0013
2001
0000
0101
0000
,
3110
0000
0010
0000
1020
0000
0100
1000
0132
0000
1000
0103
2011
0000
0001
3010
,
1002
0100
0010
0000
1010
0000
1003
0010
1002
0000
1013
0000
1102
0000
1103
0000
,
0012
0100
1003
0000
0201
0000
0010
0000
1000
0300
1000
1000
0110
0000
0110
0000
,
0101
0000
0010
0000
0001
0000
1000
0000
2000
0000
0200
3000
0020
0300
0002
0030
,
0010
0003
0001
0000
0101
0000
0010
0000
1000
0000
1000
0000
1100
0000
1100
0000
,
0101
0010
0100
0010
1001
0010
1000
0100
,
1100
0000
0010
0000
0201
0000
1001
0000
1010
0000
1001
0300
1020
0000
0101
0000
,
1001
0000
0101
0030
1002
0000
0110
0000
1010
0000
1010
0003
1100
0000
1100
0000
,
0010
0001
0110
0010
1001
0001
1000
1000
,
1100
0010
0101
0010
0100
0010
0110
0110
,
0001
0000
0000
0000
0000
0000
0000
0000
0010
0000
0000
0000
0000
0000
0000
0000
2000
0000
0000
0000
0000
0000
0000
0000
0000
0000
0000
0000
0000
0000
0000
0000
0001
0000
0000
0000
0000
0000
0000
0000
0000
0000
0000
0000
0000
0001
0000
0000
0000
0000
0000
0000
0000
0000
0000
0000
0001
0000
0000
0000
0000
0000
0000
0000
,
0000
0000
0000
0000
0000
0000
0000
0000
0000
0000
0000
0000
0000
0000
0000
0000
0000
0000
0000
0000
0000
0000
0000
0000
0001
0000
0000
0000
0000
0000
0000
0000
0001
0000
0000
0000
3000
0000
0000
0000
0001
0000
0000
0000
0000
0000
0000
0000
0002
0000
0000
0000
0000
0000
0000
0000
0000
0000
0000
0000
0000
0000
0000
0000
0000
0000
0000
0000
0000
0000
0000
0000
0000
0000
0000
0000
0000
0000
0000
0000
0000
0000
0000
0000
0000
0000
0000
0000
0000
0000
0000
0000
0000
0000
0000
0000
0010
0000
0000
0000
0000
0000
0000
0000
0000
0000
0000
0000
0000
0000
0000
0000
0000
0000
0000
0000
0000
0000
0000
0000
0000
0000
0000
0000
0000
0000
0000
0000
0000
0000
0000
0000
0000
0000
0000
0010
0000
0000
0000
0000
0000
0000
0000
0000
0000
0000
0000
0000
0000
0000
0000
0000
0000
0000
0000
0000
0000
0000
0000
0000
0000
0000
0000
0000
0000
0000
0000
0000
0010
0000
0000
0000
0000
0000
0000
0000
0000
0000
0000
0000
0000
0000
0000
0000
0000
0000
0000
0000
0000
0000
0000
0000
,
0000
0000
0000
0000
0000
0000
0000
0000
0000
0000
0000
0000
0003
0000
0000
0000
0200
0000
0000
0000
0000
0000
0000
0000
0000
0000
0000
0000
0000
0000
0000
0000
0010
0000
0000
0000
0000
0000
0000
0000
0000
0000
0000
0000
0000
0010
0000
0000
0000
0000
0000
0000
0000
0000
0000
0000
0010
0000
0000
0000
0000
0000
0000
0000
,
0000
0000
0000
0000
0000
0000
0000
0000
0000
0000
0000
0000
0000
0000
0000
0000
0000
0000
0000
0000
0000
0000
0000
0000
0010
0000
0000
0000
0000
0000
0000
0000
0010
0000
0000
0000
0300
0000
0000
0000
0010
0000
0000
0000
0000
0000
0000
0000
0020
0000
0000
0000
0000
0000
0000
0000
0000
0000
0000
0000
0000
0000
0000
0000
0000
0000
0000
0000
0000
0000
0000
0000
0000
0000
0000
0000
0000
0000
0000
0000
0000
0000
0000
0000
0000
0000
0000
0000
0000
0000
0000
0000
0000
0000
0000
0000
0001
0000
0000
0000
0000
0000
0000
0000
0000
0000
0000
0000
0000
0000
0000
0000
0000
0000
0000
0000
0000
0000
0000
0000
0000
0000
0000
0000
0000
0000
0000
0000
0000
0000
0000
0000
0000
0000
0000
0001
0000
0000
0000
0000
0000
0000
0000
0000
0000
0000
0000
0000
0000
0000
0000
0000
0000
0000
0000
0000
0000
0000
0000
0000
0000
0000
0000
0000
0000
0000
0000
0000
0001
0000
0000
0000
0000
0000
0000
0000
0000
0000
0000
0000
0000
0000
0000
0000
0000
0000
0000
0000
0000
0000
0000
0000
,
0000
0000
0000
0000
0000
0000
0000
0000
0000
0000
0000
0000
0030
0000
0000
0000
0002
0000
0000
0000
0000
0000
0000
0000
0000
0000
0000
0000
0000
0000
0000
0000
1000
0000
0000
0000
0000
0000
0000
0000
0000
0000
0000
0000
0000
1000
0000
0000
0000
0000
0000
0000
0000
0000
0000
0000
1000
0000
0000
0000
0000
0000
0000
0000
,
0000
0000
0000
0000
0000
0000
1000
0000
1000
0003
1000
0000
2000
0000
0000
0000
0000
0000
0000
0000
0000
0000
0000
0000
0001
0000
0000
0000
0000
0000
0000
0000
0000
0000
0000
0000
0010
0000
0000
0000
0000
0000
0010
0000
0000
0000
0000
0000
,
3000
0000
0010
0000
1100
0000
0201
0000
0000
0300
0000
0000
0011
0000
0011
0000
,
0011
0011
1101
0010
1000
1000
1100
0010
,
1100
0010
0101
0010
0100
0010
1100
1100
,
0100
0010
0101
0010
1000
0010
0011
0011
,
0101
0010
1001
0010
1000
0100
1100
1100
,
0110
0000
0010
0000
0201
0000
0010
0000
1001
0000
0010
0300
1010
0000
1010
0000
,
0101
0010
1100
0010
0110
0010
0101
0101
,
0110
0010
1100
0010
1001
0001
1000
1000
,
1010
0100
0010
0001
0110
0000
0010
0000
1000
0000
1100
0010
0001
0000
0101
0010
,
0001
0000
0010
0000
1020
0000
1000
0100
1001
0000
0100
0001
1100
0000
0001
0000
,
0100
0000
1000
0030
2001
0000
0100
0010
0001
0000
0001
0100
0011
0000
0010
0001
,
0110
0000
0010
3000
1020
0000
0001
0100
1001
0000
1000
0000
0100
0000
0130
0000
,
0010
0001
1002
0100
1000
0220
0000
0000
,
0333
0000
0000
0000
;
